Скачать Бесстыжие - 18 Апреля 2014 - Халява
ХАЛЯВА
Главная | Регистрация | Вход Приветствую Вас Гость | RSS
Меню сайта
Мини-чат
500
Наш опрос
Оцените мой сайт
Всего ответов: 78
Статистика

Онлайн всего: 1
Гостей: 1
Пользователей: 0
Главная » 2014 » Апрель » 18 » Скачать Бесстыжие
Скачать Бесстыжие
03:00

Бесстыжие скачать

Бесстыжие / Бесстыдники 4 сезон ...

Скачать

Размер: 28.6 ГБ
Сидов: 0
Личей: неизвестно
Добавлен в базу: неизвестно
Файлы в архиве: Shameless.US.S03E01.720p.HDTVRip.mkv

-Бесстыжие / Shameless (US)
«The Gallaghers: Absolutely, Wildly, Unapologetically...»- Год выпуска: 2013
Страна: США
Жанр: драма, комедия
Продолжительность: 12 х ~60 мин-Перевод: Профессиональный (многоголосый закадровый) AlexFilm
Режиссёр: Марк Майлод, Джон Уэллс, Стивен Хопкинс, Тодд Холлэнд, Мими Ледер, Джон Дал
В ролях: Уильям Х. Мэйси, Эмми Россам, Итэн Каткоски, Джастин Чэтвин, Блейк Александр Джонсон, Бреннан Кэйн Джонсон, Кельвин Гилмор, Камерон Монахэн, Лаура Уиггинс, Джоэль Мюррэй, Пей Вахдат, Джоан Кьюсак
Описание:
Shameless, основанный на одноименном британском сериале, расскажет о семействе Галлагеров из Чикаго. Мать уже давно бросила семью, а отец-алкоголик обычно лежит в отключке, поэтому старшей дочери приходится взять на себя обязанности родителя и воспитывать четверых братьев и сестру.
-Доп. информация:
Перевод: Олег Папулов (Jeketeur), Ольга Галайда [9-12]
Монтаж и сведение звука: markinscor, Сергей Мартынов, Алексей Фокин
Роли озвучивали:
Евгения Тихонова
Анастасия Флигина
Константин Погодаев
Александр Дасевич
Михаил Суслов
Ссылка на предыдущие и альтернативные раздачи: http://rutracker.org/forum/tracker.php?nm=Shameless%20%28US%29-Внимание! В сериале присутствуют сцены с обнаженной натурой и ненормативная лексика!-Сэмпл: Заливается.
Качество: HDTVRip 720p
Контейнер: MKV
Видео: 1280 x 720, 23.976 fps, 5000-6500 kbp
Аудио: AC3 Audio: 3/2 Channels (L, C, R, SL, SR) + LFE, 48.0 kHz, 384 kbps.
Аудио 2: AC3 Audio: 3/2 Channels (L, C, R, SL, SR) + LFE, 48.0 kHz, 384 kbps.
Субтитры: отсутствуют Список серий 1. Большой Каньон (El Gran Canon)
2. Американская мечта (The American Dream)
3. Можно подстричь твою изгородь? (May I Trim Your Hedges?)
4. Галлагеры спешат на помощь (The Helpful Gallaghers)
5. Грехи моего опекуна (The Sins of My Caretaker)
6. Череда неудач (Cascading Failures)
7. Долгая дорога от дома (A Long Way From Home)
8. Было бы завещание (Where There's a Will)
9. Водопроводчик Фрэнк (Frank the Plumber)
10. Гражданские бесправия (Civil Wrongs)
11. Обслуживание в номер (Order Room Service)
12. Выживает сильнейший (Survival of the Fittest) MediaInfo Complete name : Shameless.US.S03.720p.HDTVRip.HDCLUB\Shameless.US.S03E01.720p.HDTVRip.mkv
Format : Matroska
Format version : Version 2
File size : 3.26 GiB
Duration : 59mn 52s
Overall bit rate : 7 788 Kbps
Encoded date : UTC 2013-03-04 14:01:21
Writing application : mkvmerge v5.8.0 ('No Sleep / Pillow') built on Sep 2 2012 15:37:04
Writing library : libebml v1.2.3 + libmatroska v1.3.0
Video
ID : 1
Format : AVC
Format/Info : Advanced Video Codec
Format profile : High@L4.1
Format settings, CABAC : Yes
Format settings, ReFrames : 9 frames
Codec ID : V_MPEG4/ISO/AVC
Duration : 59mn 52s
Bit rate : 6 865 Kbps
Width : 1 280 pixels
Height : 720 pixels
Display aspect ratio : 16:9
Frame rate mode : Constant
Frame rate : 23.976 fps
Color space : YUV
Chroma subsampling : 4:2:0
Bit depth : 8 bits
Scan type : Progressive
Bits/(Pixel*Frame) : 0.311
Stream size : 2.87 GiB (88%)
Writing library : x264 core 129 r2245 bc13772
Encoding settings : cabac=1 / ref=9 / deblock=1:-2:-3 / analyse=0x3:0x113 / me=umh / subme=10 / psy=1 / psy_rd=1.05:0.10 / mixed_ref=1 / me_range=48 / chroma_me=1 / trellis=2 / 8x8dct=1 / cqm=0 / deadzone=6,6 / fast_pskip=0 / chroma_qp_offset=-3 / threads=12 / lookahead_threads=2 / sliced_threads=0 / nr=0 / decimate=0 / interlaced=0 / bluray_compat=0 / constrained_intra=0 / bframes=7 / b_pyramid=2 / b_adapt=2 / b_bias=0 / direct=1 / weightb=1 / open_gop=0 / weightp=2 / keyint=250 / keyint_min=24 / scenecut=50 / intra_refresh=0 / rc_lookahead=200 / rc=crf / mbtree=1 / crf=18.0 / qcomp=0.70 / qpmin=0 / qpmax=66 / qpstep=10 / vbv_maxrate=48000 / vbv_bufsize=40000 / crf_max=0.0 / nal_hrd=none / ip_ratio=1.10 / aq=1:0.90
Language : English
Default : Yes
Forced : No
Matrix coefficients : BT.709
Audio #1
ID : 2
Format : AC-3
Format/Info : Audio Coding 3
Mode extension : CM (complete main)
Format settings, Endianness : Big
Codec ID : A_AC3
Duration : 59mn 52s
Bit rate mode : Constant
Bit rate : 384 Kbps
Channel(s) : 6 channels
Channel positions : Front: L C R, Side: L R, LFE
Sampling rate : 48.0 KHz
Bit depth : 16 bits
Compression mode : Lossy
Stream size : 164 MiB (5%)
Title : MVO AlexFilm
Language : Russian
Default : Yes
Forced : No
Audio #2
ID : 3
Format : AC-3
Format/Info : Audio Coding 3
Mode extension : CM (complete main)
Format settings, Endianness : Big
Codec ID : A_AC3
Duration : 59mn 52s
Bit rate mode : Constant
Bit rate : 384 Kbps
Channel(s) : 6 channels
Channel positions : Front: L C R, Side: L R, LFE
Sampling rate : 48.0 KHz
Bit depth : 16 bits
Compression mode : Lossy
Delay relative to video : 4ms
Stream size : 164 MiB (5%)
Language : English
Default : No
Forced : No Скриншоты

Скачать файл через файлообменник: Скачать

Скачать через торрент: Скачать торрент

Тэги: Сериал: Бесстыжие, Бесстыжие (Shameless) — даты выхода, Бесстыдники - КиноПоиск. Все, Бесстыжий смотреть онлайн, Бесстыжий (2013) - смотреть онлайн, Бесстыжие 2 сезон (1 - 12 (12) серии, ПИЗДА / Русские бесстыжие, Бесстыжий / Besharam (2013) | Мелодрама, Сериал Бесстыдники / Бесстыжие 4, Смотреть сериалы онлайн

Просмотров: 53 | Добавил: ®ХАКЕР® | Рейтинг: 0.0/0 |
Всего комментариев: 0
Имя *:
Email *:
Код *:
Форма входа
Поиск
Календарь
«  Апрель 2014  »
ПнВтСрЧтПтСбВс
 123456
78910111213
14151617181920
21222324252627
282930
Проигрователь
Администратор сайта - Крюков Артём